Saving Mr Banks 2013 DVDSCR DTeCH



Mexicosoft » Zona Audiovisual » Foro Peliculas




Descarga Directa a Máxima Velocidad
08-ene-2014  
Expulsado ;(


Saving Mr Banks 2013 DVDSCR DTeCH


Posteado en Mexicosoft.net

Saving Mr Banks 2013 DVDSCR DTeCH



Cita:
http://www.imdb.com/title/tt2140373

Author P. L. Travers reflects on her difficult childhood while meeting with filmmaker Walt Disney during production for the adaptation of her novel, Mary Poppins.


General
Complete name : Saving Mr Banks 2013 DVDSCR-DTeCH.avi
Format : AVI
Format/Info : Audio Video Interleave
Format profile : OpenDML
File size : 1.87 GiB
Duration : 2h 11mn
Overall bit rate : 2 038 Kbps
Writing application : MEncoder version Beta 4.4.5 building on 20110111

Video
ID : 0
Format : MPEG-4 Visual
Format profile : Advanced Simple@L5
Format settings, BVOP : 2
Format settings, QPel : No
Format settings, GMC : No warppoints
Format settings, Matrix : Default (MPEG)
Codec ID : XVID
Codec ID/Hint : XviD
Duration : 2h 11mn
Bit rate : 1 776 Kbps
Width : 720 pixels
Height : 540 pixels
Display aspect ratio : 4:3
Frame rate : 29.970 fps
Color space : YUV
Chroma subsampling : 4:2:0
Bit depth : 8 bits
Scan type : Progressive
Compression mode : Lossy
Bits/(Pixel*Frame) : 0.152
Stream size : 1.63 GiB (87%)
Writing library : XviD 1.2.1 (UTC 2008-12-04)

Audio
ID : 1
Format : AC-3
Format/Info : Audio Coding 3
Mode extension : CM (complete main)
Format settings, Endianness : Big
Codec ID : 2000
Duration : 2h 11mn
Bit rate mode : Constant
Bit rate : 256 Kbps
Channel(s) : 2 channels
Channel positions : Front: L R
Sampling rate : 48.0 KHz
Bit depth : 16 bits
Compression mode : Lossy
Delay relative to video : 33ms
Stream size : 240 MiB (13%)
Alignment : Split accross interleaves
Interleave, duration : 500 ms (14.98 video frames)
Interleave, preload duration : 500 ms


http://ultramegabit.com/file/details/qSDPVVf2shU
http://ultramegabit.com/file/details/rJ1exQucA8w
http://ultramegabit.com/file/details/LlElgV5XDlo

http://terafile.co/dc387834398d/Saving Mr Banks 2013 DVDSCR-DTeCH.part1.rar
http://terafile.co/7692539da989/Saving Mr Banks 2013 DVDSCR-DTeCH.part2.rar
http://terafile.co/229181595716/Saving Mr Banks 2013 DVDSCR-DTeCH.part3.rar

  • Comparte este post Comparte este post
  •  



 
Descarga Segura
Comentarios - Saving Mr Banks 2013 DVDSCR DTeCH
08-ene-2014  
Mexicosoft User LV. 2


Re: Saving Mr Banks 2013 DVDSCR DTeCH


gracias
 
 

Registrate Gratis para comentar este post

Información del Post

  • Usuarios que calificaron este post Calificaciones: 0 |
  • Visto Visitas: 242 |
  • Autor Publicado por: andromur |
  • Foro Categoria: Foro Peliculas
Herramientas


Posts relacionados con Saving Mr Banks 2013 DVDSCR DTeCH