Saving Mr Banks 2013 DVDSCR DTeCH


En el foro Peliculas Gratis descargar en 1 Link en MEGA Mediafire y Firedrive



Mexicosoft » Zona Multimedia » Peliculas Gratis





Descarga Directa a Máxima Velocidad
     
08-ene-2014
Expulsado ;(
 
Predeterminado Saving Mr Banks 2013 DVDSCR DTeCH


Posteado en Mexicosoft.net


Saving Mr Banks 2013 DVDSCR DTeCH



Cita:


Author P. L. Travers reflects on her difficult childhood while meeting with filmmaker Walt Disney during production for the adaptation of her novel, Mary Poppins.


General
Complete name : Saving Mr Banks 2013 DVDSCR-DTeCH.avi
Format : AVI
Format/Info : Audio Video Interleave
Format profile : OpenDML
File size : 1.87 GiB
Duration : 2h 11mn
Overall bit rate : 2 038 Kbps
Writing application : MEncoder version Beta 4.4.5 building on 20110111

Video
ID : 0
Format : MPEG-4 Visual
Format profile : Advanced Simple@L5
Format settings, BVOP : 2
Format settings, QPel : No
Format settings, GMC : No warppoints
Format settings, Matrix : Default (MPEG)
Codec ID : XVID
Codec ID/Hint : XviD
Duration : 2h 11mn
Bit rate : 1 776 Kbps
Width : 720 pixels
Height : 540 pixels
Display aspect ratio : 4:3
Frame rate : 29.970 fps
Color space : YUV
Chroma subsampling : 4:2:0
Bit depth : 8 bits
Scan type : Progressive
Compression mode : Lossy
Bits/(Pixel*Frame) : 0.152
Stream size : 1.63 GiB (87%)
Writing library : XviD 1.2.1 (UTC 2008-12-04)

Audio
ID : 1
Format : AC-3
Format/Info : Audio Coding 3
Mode extension : CM (complete main)
Format settings, Endianness : Big
Codec ID : 2000
Duration : 2h 11mn
Bit rate mode : Constant
Bit rate : 256 Kbps
Channel(s) : 2 channels
Channel positions : Front: L R
Sampling rate : 48.0 KHz
Bit depth : 16 bits
Compression mode : Lossy
Delay relative to video : 33ms
Stream size : 240 MiB (13%)
Alignment : Split accross interleaves
Interleave, duration : 500 ms (14.98 video frames)
Interleave, preload duration : 500 ms






Mr Banks 2013 DVDSCR-DTeCH.part1.rar
Mr Banks 2013 DVDSCR-DTeCH.part2.rar
Mr Banks 2013 DVDSCR-DTeCH.part3.rar

Descarga Directa a Máxima Velocidad

Descarga Saving Mr Banks 2013 DVDSCR DTeCH



  • Comparte este post Comparte este post
  •  



     
08-ene-2014
Mexicosoft User LV. 2
 
Predeterminado Re: Saving Mr Banks 2013 DVDSCR DTeCH

gracias
 

Registrate Gratis para descargar y comentar este post

Información del Post

  • Usuarios que calificaron este post Calificaciones: 0 |
  • Visto Visitas: 222 |
  • Autor Publicado por: andromur |
  • Foro Categoria: Peliculas Gratis
Herramientas


Descargas relacionadas con Saving Mr Banks 2013 DVDSCR DTeCH