Mexicosoft » Zona Multimedia » Peliculas Gratis

Descargar Frozen 2013 DVDScr H264 MP4 AAC5.1 INFERNO Gratis
  #1      
09-ene-2014
 
 
Predeterminado Frozen 2013 DVDScr H264 MP4 AAC5.1 INFERNO

Frozen 2013 DVDScr H264 MP4 AAC5.1 INFERNO


Descargar Frozen 2013 DVDScr H264 MP4 AAC5.1 INFERNO Gratis en 1 Link por MEGA Mediafire y Firedrive


Posteado en www.mexicosoft.net/showthread.php?t=152322


bgd7

Frozen 2013 DVDScr H264 MP4 AAC5.1 INFERNO
File Size: 1,59GB



INFORMATION

Fearless optimist Anna teams up with Kristoff in an epic journey, encountering Everest-like conditions, and a hilarious snowman named Olaf in a race to find Anna's sister Elsa, whose icy powers have trapped the kingdom in eternal winter.

Directors: Chris Buck and Jennifer Lee
Writers: Jennifer Lee (screenplay) and Hans Christian Andersen (story)
Stars: Kristen Bell, Josh Gad and Idina Menzel

General
Complete name : C:\Users\Nathaniel\D ocuments\FROZEN [2013]DVDScr[H264 MP4 6ch AAC][RoB]
Format : MPEG-4
Format profile : Base Media
Codec ID : isom
File size : 1.59 GiB
Duration : 1h 40mn
Overall bit rate mode : Variable
Overall bit rate : 2 260 Kbps
Encoded date : UTC 2014-01-07 20:34:04
Tagged date : UTC 2014-01-07 20:34:04
Writing application : Lavf51.12.1
Video #1
ID : 1
Format : AVC
Format/Info : Advanced Video Codec
Format profile : Baseline@L3.0
Format settings, CABAC : No
Format settings, ReFrames : 1 frame
Format settings, GOP : M=1, N=12
Codec ID : avc1
Codec ID/Info : Advanced Video Coding
Duration : 1h 40mn
Bit rate : 1 999 Kbps
Width : 720 pixels
Height : 320 pixels
Display aspect ratio : 2.25:1
Frame rate mode : Constant
Frame rate : 29.970 fps
Color space : YUV
Chroma subsampling : 4:2:0
Bit depth : 8 bits
Scan type : Progressive
Bits/(Pixel*Frame) : 0.289
Stream size : 1.41 GiB (88%)
Encoded date : UTC 2014-01-07 20:34:04
Tagged date : UTC 2014-01-07 20:34:04
Audio #2
ID : 2
Format : AAC
Format/Info : Advanced Audio Codec
Format profile : LC
Codec ID : 40
Duration : 1h 40mn
Bit rate mode : Variable
Bit rate : 256 Kbps
Channel count : 2 channels
Original Channel count : 6 channels
Channel positions : Front: L C R, Side: L R, LFE
Sampling rate : 44.1 KHz
Compression mode : Lossy
Stream size : 184 MiB (11%)
Encoded date : UTC 2014-01-07 20:34:04
Tagged date : UTC 2014-01-07 20:34:04


SCREENSHOTS

tgn0


DOWNLOAD WITH RAPIDGATOR




Single file



mythanks

http://www.mexicosoft.net/showthread.php?t=152322
Descargar Frozen 2013 DVDScr H264 MP4 AAC5.1 INFERNO Gratis

Post creado originalmente en www.mexicosoft.net


  • Comparte este post Comparte este post
  •  



 

Necesitás estar Registrado para comentar y descargar Frozen 2013 DVDScr H264 MP4 AAC5.1 INFERNO
Información del Post
  • Usuarios que calificaron este post Calificaciones: 0 |
  • Visto Visitas: 65 |
  • Autor Publicado por: andromur |
  • Foro Categoria: Peliculas Gratis
Herramientas


Descargas relacionadas con Frozen 2013 DVDScr H264 MP4 AAC5.1 INFERNO