Mexicosoft » Zona Multimedia » Peliculas Gratis

Descargar El Hobbit 2: La desolación de Smaug (2013) [720pHD/Latino] [Aventura] [1 Link] [FD] Gratis
  #1      
20-mar-2014
 
 
fil El Hobbit 2: La desolación de Smaug (2013) [720pHD/Latino] [Aventura] [1 Link] [FD]

El Hobbit 2: La desolación de Smaug (2013) [720pHD/Latino] [Aventura] [1 Link] [FD]


Descargar El Hobbit 2: La desolación de Smaug (2013) [720pHD/Latino] [Aventura] [1 Link] [FD] Gratis en 1 Link por MEGA Mediafire y Firedrive


Posteado en www.mexicosoft.net/showthread.php?t=182190


720p2520HD2520Latino

Sinopsis:
"El Hobbit: La Desolación de Smaug" continua la aventura de Bilbo Bolsón en su viaje con el mago Gandalf y trece enanos liderados por Thorin Escudo de Roble en una búsqueda épica para reclamar el reino enano de Erebor. En su camino toparán con multitud de peligros y harán frente al temible dragón Smaug.

Ficha Técnica:
Título original: The Hobbit: The Desolation of Smaug (The Hobbit 2)
Otros Títulos: El Hobbit: La desolación de Smaug / El Hobbit 2
Año: 2013
Duración: 160 min.
País: Estados Unidos
Director: Peter Jackson
Guión: Philippa Boyens, Peter Jackson, Fran Walsh, Guillermo del Toro (Novela: J.R.R. Tolkien)
Música: Howard Shore
Fotografía: Andrew Lesnie
Reparto: Martin Freeman, Ian McKellen, Richard Armitage, James Nesbitt, Aidan Turner, Graham McTavish, Jed Brophy, Luke Evans, Benedict Cumberbatch, Stephen Hunter, Ken Stott, Evangeline Lilly, Orlando Bloom, John Callen, Adam Brown, Dean O'Gorman, William Kircher, Peter Hambleton, Mark Hadlow, Lee Pace, Sylvester McCoy, Cate Blanchett, Mikael Persbrandt, Stephen Fry, Ryan Gage
Productora: Metro-Goldwyn-Mayer (MGM) / New Line Cinema / WingNut Films
Género: Fantástico. Aventuras. Acción | Espada y brujería. Dragones. Secuela. 3-D

Trailer:


Datos Técnicos:
720pHD | MKV | 1.53 GB | 1280x534 | Español Latino

Capturas:
J2kgqiU

Mediainfo:
[SPOILER]
General
Unique ID : 18411571650779489330 8763843364508331402 (0x8A8365ACA2D55E858 B0DE8AAFFFEED8A)
Complete name : The.Hobbit.2.720p.La tino.AC3.5.1(pelicul astomas01).mkv
Format : Matroska
Format version : Version 4 / Version 2
File size : 1.53 GiB
Duration : 2h 41mn
Overall bit rate : 1 356 Kbps
Encoded date : UTC 2014-03-19 05:03:31
Writing application : mkvmerge v6.8.0 ('Theme for Great Cities') 64bit built on Mar 2 2014 21:34:26
Writing library : libebml v1.3.0 + libmatroska v1.4.1

Video
ID : 1
Format : AVC
Format/Info : Advanced Video Codec
Format profile : High@L3.1
Format settings, CABAC : Yes
Format settings, ReFrames : 4 frames
Codec ID : V_MPEG4/ISO/AVC
Duration : 2h 41mn
Bit rate : 971 Kbps
Width : 1 280 pixels
Height : 534 pixels
Display aspect ratio : 2.40:1
Frame rate mode : Constant
Frame rate : 23.976 fps
Color space : YUV
Chroma subsampling : 4:2:0
Bit depth : 8 bits
Scan type : Progressive
Bits/(Pixel*Frame) : 0.059
Stream size : 1.07 GiB (70%)
Writing library : x264 core 138 r2358 9e941d1
Encoding settings : cabac=1 / ref=3 / deblock=1:0:0 / analyse=0x3:0x113 / me=hex / subme=7 / psy=1 / psy_rd=1.00:0.00 / mixed_ref=1 / me_range=16 / chroma_me=1 / trellis=1 / 8x8dct=1 / cqm=0 / deadzone=21,11 / fast_pskip=1 / chroma_qp_offset=-2 / threads=12 / lookahead_threads=2 / sliced_threads=0 / nr=0 / decimate=1 / interlaced=0 / bluray_compat=0 / constrained_intra=0 / bframes=3 / b_pyramid=2 / b_adapt=1 / b_bias=0 / direct=1 / weightb=1 / open_gop=0 / weightp=2 / keyint=240 / keyint_min=23 / scenecut=40 / intra_refresh=0 / rc_lookahead=40 / rc=2pass / mbtree=1 / bitrate=971 / ratetol=1.0 / qcomp=0.60 / qpmin=0 / qpmax=69 / qpstep=4 / cplxblur=20.0 / qblur=0.5 / ip_ratio=1.40 / aq=1:1.00
Default : Yes
Forced : No

Audio
ID : 2
Format : AC-3
Format/Info : Audio Coding 3
Mode extension : CM (complete main)
Format settings, Endianness : Big
Codec ID : A_AC3
Duration : 2h 41mn
Bit rate mode : Constant
Bit rate : 384 Kbps
Channel(s) : 6 channels
Channel positions : Front: L C R, Side: L R, LFE
Sampling rate : 48.0 KHz
Bit depth : 16 bits
Compression mode : Lossy
Stream size : 443 MiB (28%)
Title : LATINO AC3 5.1
Language : Spanish
Default : Yes
Forced : No

[SPOILER]

Contraseña / Password:
[SPOILER]peliculastomas01[SPOILER]

Descargar / Download:


FreakShare | uploadable | FireDriver(PutLocker )

Spoiler


Notas:
----------------------------------------------------------------------------------------------------
-Si tienes problemas con el sonido reportamelo por MP, Ya le tengo solucion.
-Si algun enlace o link se cae, no lo avises comentando, hazlo por MP o por el reporte de links, asi me doy cuenta rapido.
-Verifica si he resubido los links aveces no lo comento en el foro, solo lo digo por el contenedor de links.
-Por favor, les pido que comenten sobre la calidad o sonido de la peli, asi los demas sabran lo que descargan.


EK33HO6 ----------------------------------------------------------------------------------------------------

kEliQ6f

Descargar El Hobbit 2: La desolación de Smaug (2013) [720pHD/Latino] [Aventura] [1 Link] [FD] Gratis
http://www.mexicosoft.net/showthread.php?t=182190
Post creado originalmente en www.mexicosoft.net


  • Comparte este post Comparte este post
  •  



 

Necesitás estar Registrado para comentar y descargar El Hobbit 2: La desolación de Smaug (2013) [720pHD/Latino] [Aventura] [1 Link] [FD]
Información del Post
  • Usuarios que calificaron este post Calificaciones: 0 |
  • Visto Visitas: 63 |
  • Autor Publicado por: kick100 |
  • Foro Categoria: Peliculas Gratis
Herramientas


Descargas relacionadas con El Hobbit 2: La desolación de Smaug (2013) [720pHD/Latino] [Aventura] [1 Link] [FD]