Mexicosoft » Zona Multimedia » Peliculas Gratis

Descargar Noé (2014) [TS Screener HQ/Español Latino] [Drama] [1 Link] [PL] Gratis
  #1      
30-mar-2014
 
 
fil Noé (2014) [TS Screener HQ/Español Latino] [Drama] [1 Link] [PL]

Noé (2014) [TS Screener HQ/Español Latino] [Drama] [1 Link] [PL]


Descargar Noé (2014) [TS Screener HQ/Español Latino] [Drama] [1 Link] [PL] Gratis en 1 Link por MEGA Mediafire y Firedrive


Posteado en www.mexicosoft.net/showthread.php?t=187535


TS2520Screener2520HQ2520Latino

Sinopsis:
En un mundo asolado por los pecados humanos, Noé, un hombre pacífico que sólo desea vivir tranquilo con su familia, recibe una misión divina: construir un Arca para salvar a la creación del inminente diluvio. Todo comienza cuando, cada noche, Noé tiene el mismo sueño: las visiones de muerte provocada por el agua, seguidas de nueva vida en la Tierra.

Ficha Técnica:
Título original: Noah
Título : Noé
Año: 2014
Duración: 138 min.
País: Estados Unidos
Director: Darren Aronofsky
Guión: Darren Aronofsky, Ari Handel
Música: Clint Mansell
Fotografía: Matthew Libatique
Reparto: Russell Crowe, Jennifer Connelly, Emma Watson, Anthony Hopkins, Ray Winstone, Logan Lerman, Marton Csokas, Dakota Goyo, Douglas Booth
Productora: Paramount Pictures / New Regency
Género: Aventuras. Drama. Fantástico | Biblia. Religión. Cine épico. Catástrofes
Estreno en USA: 28/03/2014
Estreno en España: 04/04/2014

Trailer:


Mira los primeros 3 minutos de la peli, antes de descargarla:
Spoiler


Datos Técnicos:
TS Screener HQ | AVI | 1.14 GB | 720x338 | Español Latino

Capturas:
zdHJcR6

Mediainfo:
[SPOILER]
General
Complete name : NOAH.TSHQ.LATINO(pel iculastomas01).avi
Format : AVI
Format/Info : Audio Video Interleave
Format profile : OpenDML
File size : 1.14 GiB
Duration : 2h 2mn
Overall bit rate : 1 342 Kbps
Writing application : Lavf52.84.0

Video
ID : 0
Format : MPEG-4 Visual
Format profile : Simple@L1
Format settings, BVOP : No
Format settings, QPel : No
Format settings, GMC : No warppoints
Format settings, Matrix : Default (H.263)
Codec ID : XVID
Codec ID/Hint : XviD
Duration : 2h 2mn
Bit rate : 1 006 Kbps
Width : 720 pixels
Height : 338 pixels
Display aspect ratio : 2.2:1
Frame rate : 23.976 fps
Color space : YUV
Chroma subsampling : 4:2:0
Bit depth : 8 bits
Scan type : Progressive
Compression mode : Lossy
Bits/(Pixel*Frame) : 0.172
Stream size : 878 MiB (75%)
Writing library : Lavc52.97.0

Audio
ID : 1
Format : MPEG Audio
Format version : Version 1
Format profile : Layer 3
Mode : Joint stereo
Mode extension : MS Stereo
Codec ID : 55
Codec ID/Hint : MP3
Duration : 2h 1mn
Bit rate mode : Constant
Bit rate : 320 Kbps
Channel(s) : 2 channels
Sampling rate : 48.0 KHz
Compression mode : Lossy
Stream size : 279 MiB (24%)
Alignment : Aligned on interleaves
Interleave, duration : 24 ms (0.58 video frame)
Interleave, preload duration : 24 ms

[SPOILER]

Contraseña / Password:
[SPOILER]peliculastomas01[SPOILER]

Descargar / Download:


FreakShare | uploadable | FireDriver(PutLocker )

Spoiler


Notas:
----------------------------------------------------------------------------------------------------
-Si tienes problemas con el sonido reportamelo por MP, Ya le tengo solucion.
-Si algun enlace o link se cae, no lo avises comentando, hazlo por MP o por el reporte de links, asi me doy cuenta rapido.
-Verifica si he resubido los links aveces no lo comento en el foro, solo lo digo por el contenedor de links.
-Por favor, les pido que comenten sobre la calidad o sonido de la peli, asi los demas sabran lo que descargan.


EK33HO6 ----------------------------------------------------------------------------------------------------

kEliQ6f

Descargar Noé (2014) [TS Screener HQ/Español Latino] [Drama] [1 Link] [PL] Gratis
http://www.mexicosoft.net/showthread.php?t=187535
Post creado originalmente en www.mexicosoft.net


  • Comparte este post Comparte este post
  •  



  #2      
30-mar-2014
 
 
Predeterminado Re: Noé (2014) [TS Screener HQ/Español Latino] [Drama] [1 Link] [PL]

Gracias
  #3      
31-mar-2014
 
 
Predeterminado Re: Noé (2014) [TS Screener HQ/Español Latino] [Drama] [1 Link] [PL]

Muchas gracias amigo kick100.
 

Necesitás estar Registrado para comentar y descargar Noé (2014) [TS Screener HQ/Español Latino] [Drama] [1 Link] [PL]
Información del Post
  • Usuarios que calificaron este post Calificaciones: 1 |
  • Visto Visitas: 1197 |
  • Autor Publicado por: kick100 |
  • Foro Categoria: Peliculas Gratis
Herramientas


Descargas relacionadas con Noé (2014) [TS Screener HQ/Español Latino] [Drama] [1 Link] [PL]